fbpx
Saturday, April 1, 2023
বাড়িUncategorizedStream to Facebook Live Tutorial 2020

Stream to Facebook Live Tutorial 2020

This tutorial video will go over some of the basics of streaming to Facebook Live with vMix.

Here are some time stamps for different sections-

Already authenticated and want to go through the set up- 3:54
Stream to Facebook Groups- 9:48

Other important links!

Custom RTMP to Facebook- https://www.vmix.com/knowledgebase/article.aspx/93/how-do-i-stream-to-facebook-live-with-vmix
Live stream to groups- https://www.vmix.com/fbgroups
Changing your privacy settings- https://www.vmix.com/knowledgebase/article.aspx/106/facebook-live-privacy-settings-overview
Facebook business page event- https://www.vmix.com/knowledgebase/article.aspx/101/streaming-to-an-event-created-on-a-facebook-business-page

Live Streaming trouble shooting- https://www.vmix.com/knowledgebase/article.aspx/87/why-does-the-stream-button-sometimes-show-orange-or-amber

vMix is live video production software that allows you to produce, record and stream from 1 PC! You can create amazing live and recorded content in SD, HD and even 4K! vMix is the most professional way to live stream your content, whether it’s to YouTube Live, Twitch, Facebook Live or any other CDN.

You can produce everything with vMix! Live talk shows, sports, esports, vlogs, training sessions, live events, houses of worship services, social media streams and much more. For more information check out- http://www.vmix.com

Free, unwatermarked 60 day trial available- http://www.vmix.com/software/download.aspx

If you’d like to subscribe to our YouTube Channel click here- http://www.youtube.com/user/vmixcomau?sub_confirmation=1

To learn more about vMix live video production software, see our YouTube Tutorial series- https://youtu.be/ESWTcbtWq7U?list=PLrm0RX9U0Mzxg-uJeE5Em3DAsgBHHaY8P

#vMix #liveproduction #livestreamingsoftware

Keep up with us on all the social medias-

vMix Twitter ► https://twitter.com/vMixHD
vMix Facebook ► https://facebook.com/vMixHD
vMix Instagram ►https://instagram.com/vMixHD , Stream to Facebook Live Tutorial 2020 , ,

, facebook live , Prompt

RELATED ARTICLES

38 মন্তব্য

  1. Hello Tim,
    My name is Bernard. Great video you have though it is very helpful. I do have a question with regards to setting up the Facebook privacy settings if i'm using a Custom RTMP. How do i chnge my privacy setting from public to only me if i'm using a custom RTMP. Can i do it directly from Vmix or no?

    Your help is appreciated.

  2. Thanks for a great video! You showed how to live stream to a private group that you are the owner of. However, I need to do live streams to some private pages I'm a member of, not owner of. Is this possible? One of the main reasons why I got vMix (basic) is so I could be able to live stream and I need to stream to other people's private pages. Thanks!

  3. Does anybody know why when streaming to facebook the audio levels don't stay consistent and drop off? (especially when going from a single speaker to a band playing music) would that be a vmix settings problem or a facebook settings problem?

  4. Can someone help me with this?
    ——————————————————
    Stream1: Streaming
    [pcm_s16le @ 052af2c0] Sample rate 0 invalid
    Error while processing the decoder data for stream #0:1

    FFMPEG1.Exited

    libavfilter 6.105.100 / 6.105.100

    libswscale 4. 7.103 / 4. 7.103

    libswresample 2. 8.100 / 2. 8.100

    libpostproc 54. 6.100 / 54. 6.100

    [dshow @ 00037e20] decoding for stream 1 failed

    [dshow @ 00037e20] Could not find codec parameters for stream 1 (Audio: pcm_s16le, 2 channels, s16): unspecified sample rate

    Consider increasing the value for the 'analyzeduration' and 'probesize' options

    Guessed Channel Layout for Input Stream #0.1 : stereo

    Input #0, dshow, from 'video=vMix Video YV12:audio=vMix Audio':

    Duration: N/A, start: 87129.856000, bitrate: N/A

    Stream #0:0: Video: rawvideo (YV12 / 0x32315659), yuv420p, 1920×1080, 25 fps, 25 tbr, 10000k tbn, 10000k tbc

    Stream #0:1: Audio: pcm_s16le, stereo, s16

    [tcp @ 053364a0] TCP Buffer has been set to 15320064 bytes

    Stream mapping:

    Stream #0:0 -> #0:0 (rawvideo (native) -> h264 (h264_nvenc))

    Stream #0:1 -> #0:1 (pcm_s16le (native) -> aac (native))

    Press [q] to stop, [?] for help

    [pcm_s16le @ 0532d340] Sample rate 0 invalid

    Error while processing the decoded data for stream #0:1

    Conversion failed!

একটি উত্তর ত্যাগ

আপনার মন্তব্য লিখুন দয়া করে!
এখানে আপনার নাম লিখুন দয়া করে

Most Popular